Gotham S05E04 Ruin 1080p NF WEBRip x265 AAC 5.1 D0ct0rLew[SEV]

  • Category TV
  • Type HEVC/x265
  • Language English
  • Total size 878.6 MB
  • Uploaded By D0ct0rLew
  • Downloads 81
  • Last checked 2 hours ago
  • Date uploaded 17 hours ago
  • Seeders 25
  • Leechers 5
80%
January 25, 2019, 2:00 am

Gotham

5x4 | Ruin

Gordon and Penguin are forced to work together and alliances are shaken when Lucius, Nygma and Barbara all have different ideas of the culprit behind recent events at Haven. Meanwhile, Selina continues her quest for revenge against Jeremiah.

Infohash : 864AC5C8DA8D190D6516AAC8DC9F4A405CB5434E






Media Information


Unique ID : 168063070448947596947713074424822677684 (0x7E6FC51E379F1DF909C11A4BE464C0B4)
Complete name : Gotham S05E04 Ruin 1080p NF WEBRip x265 AAC 5.1 D0ct0rLew[SEV].mkv
Format : Matroska
Format version : Version 4
File size : 879 MiB
Duration : 43 min 17 s
Overall bit rate : 2 837 kb/s
Encoded date : UTC 2019-01-27 02:35:42
Writing application : mkvmerge v29.0.0 ('Like It Or Not') 64-bit
Writing library : libebml v1.3.6 + libmatroska v1.4.9

Video
ID : 3
Format : HEVC
Format/Info : High Efficiency Video Coding
Format profile : Main [email protected]@Main
Codec ID : V_MPEGH/ISO/HEVC
Duration : 43 min 16 s
Bit rate : 2 388 kb/s
Width : 1 920 pixels
Height : 1 080 pixels
Display aspect ratio : 16:9
Frame rate mode : Constant
Frame rate : 23.976 (24000/1001) FPS
Color space : YUV
Chroma subsampling : 4:2:0
Bit depth : 10 bits
Bits/(Pixel*Frame) : 0.048
Stream size : 739 MiB (84%)
Writing library : x265 3.0_RC+4-8aebc58efe5c:[Windows][MSVC 1920][64 bit] 10bit
Encoding settings : cpuid=1111039 / frame-threads=3 / numa-pools=8 / wpp / no-pmode / no-pme / no-psnr / no-ssim / log-level=2 / input-csp=1 / input-res=1920x1080 / interlace=0 / total-frames=62254 / level-idc=0 / high-tier=1 / uhd-bd=0 / ref=4 / no-allow-non-conformance / no-repeat-headers / annexb / no-aud / no-hrd / info / hash=0 / no-temporal-layers / open-gop / min-keyint=23 / keyint=250 / gop-lookahead=0 / bframes=8 / b-adapt=2 / b-pyramid / bframe-bias=0 / rc-lookahead=90 / lookahead-slices=4 / scenecut=40 / radl=0 / no-splice / no-intra-refresh / ctu=64 / min-cu-size=8 / no-rect / no-amp / max-tu-size=32 / tu-inter-depth=1 / tu-intra-depth=1 / limit-tu=0 / rdoq-level=2 / dynamic-rd=0.00 / no-ssim-rd / signhide / no-tskip / nr-intra=0 / nr-inter=0 / no-constrained-intra / no-strong-intra-smoothing / max-merge=3 / limit-refs=3 / limit-modes / me=3 / subme=7 / merange=92 / temporal-mvp / weightp / no-weightb / no-analyze-src-pics / deblock=3:3 / sao / no-sao-non-deblock / rd=4 / no-early-skip / rskip / no-fast-intra / no-tskip-fast / no-cu-lossless / no-b-intra / no-splitrd-skip / rdpenalty=0 / psy-rd=1.10 / psy-rdoq=1.00 / no-rd-refine / no-lossless / cbqpoffs=3 / crqpoffs=3 / rc=crf / crf=20.0 / qcomp=0.54 / qpstep=4 / stats-write=0 / stats-read=0 / ipratio=1.40 / pbratio=1.30 / aq-mode=3 / aq-strength=1.00 / cutree / zone-count=0 / no-strict-cbr / qg-size=32 / no-rc-grain / qpmax=69 / qpmin=0 / no-const-vbv / sar=0 / overscan=0 / videoformat=5 / range=0 / colorprim=2 / transfer=2 / colormatrix=2 / chromaloc=0 / display-window=0 / max-cll=0,0 / min-luma=0 / max-luma=1023 / log2-max-poc-lsb=8 / vui-timing-info / vui-hrd-info / slices=1 / no-opt-qp-pps / no-opt-ref-list-length-pps / no-multi-pass-opt-rps / scenecut-bias=0.05 / no-opt-cu-delta-qp / no-aq-motion / no-hdr / no-hdr-opt / no-dhdr10-opt / no-idr-recovery-sei / analysis-reuse-level=5 / scale-factor=0 / refine-intra=0 / refine-inter=0 / refine-mv=0 / refine-ctu-distortion=0 / no-limit-sao / ctu-info=0 / no-lowpass-dct / refine-analysis-type=0 / copy-pic=1 / max-ausize-factor=1.0 / no-dynamic-refine / no-single-sei / no-hevc-aq / qp-adaptation-range=1.00
Default : Yes
Forced : No

Audio
ID : 2
Format : AAC LC
Format/Info : Advanced Audio Codec Low Complexity
Codec ID : A_AAC-2
Duration : 43 min 17 s
Bit rate : 448 kb/s
Channel(s) : 6 channels
Channel layout : C L R Ls Rs LFE
Sampling rate : 48.0 kHz
Frame rate : 46.875 FPS (1024 SPF)
Compression mode : Lossy
Delay relative to video : 9 ms
Stream size : 139 MiB (16%)
Default : Yes
Forced : No

Text
ID : 1
Format : UTF-8
Codec ID : S_TEXT/UTF8
Codec ID/Info : UTF-8 Plain Text
Duration : 41 min 42 s
Bit rate : 66 b/s
Count of elements : 579
Stream size : 20.2 KiB (0%)
Default : Yes
Forced : No


We have no issue with individuals posting or re-uploading our torrents on a platform we aren't on. However, if this is something you'd like to do, please do so in a 'as-is' format. We ask that you do not create a new torrent, include all descriptions you see above including the SEV logo, tags, notes and screenshots. If you'd like to become a permanent poster on a website we don't post to, feel free to get in contact with a Sublime Encoded Video member.



We are recruiting/training new members for SEV & seedbox providers as well as people to help out with subtitles.
As you already know, we deliver quality, so you know the standard.
If you're interested, feel free to contact any of the team members.

Files:

  • Gotham S05E04 Ruin 1080p NF WEBRip x265 AAC 5.1 D0ct0rLew[SEV].mkv (878.6 MB)

There are currently no comments. Feel free to leave one :)

Code:

  • http://explodie.org:6969/announce
  • http://tracker1.itzmx.com:8080/announce
  • http://open.acgtracker.com:1096/announce
  • udp://tracker.leechers-paradise.org:6969
  • udp://tracker.zer0day.to:1337
  • http://tracker1.wasabii.com.tw:6969/announce
  • http://tracker.mg64.net:6881/announce
  • http://pubt.net:2710/announce
  • http://mgtracker.org:2710/announce
  • udp://tracker.coppersurfer.tk:6969
  • http://149.5.241.17:6969/announce
  • udp://tracker.leechers-paradise.org:6969/announce
  • udp://tracker.coppersurfer.tk:6969/announce
  • udp://tracker.opentrackr.org:1337/announce
  • udp://tracker.zer0day.to:1337/announce
  • udp://eddie4.nl:6969/announce
  • udp://shadowshq.yi.org:6969/announce
  • udp://tracker.justseed.it:1337/announce
  • http://0d.kebhana.mx:443/announce
  • http://open.acgnxtracker.com:443/announce
  • http://p4p.arenabg.com:1337/announce
  • http://tracker.city9x.com:2710/announce
  • http://linetorrent.xyz:443/announce
  • udp://9.rarbg.me:2710/announce
  • udp://p4p.arenabg.com:1337
  • udp://tracker.internetwarriors.net:1337
SitemapClash of Kings | 2 years, 10 months ago | Revenge Has Returned Kintani - Titip Rindu Buat Ayah.mp3 | 공지 사항 | Waarom kan ik een film of serie of aanbieder niet vinden?Chevron right